TV

Download Legends of Tomorrow S03E08 Crisis on Earth-X Part 4 1080p DD5.1 - 2.0 x264 Phun ... TV Show, Serials

Dont Forget Seed After Download!
Download Legends of Tomorrow S03E08 Crisis on Earth-X Part 4 1080p DD5.1 - 2.0 x264 Phun ... TV Show, Serials.torrent

http://www.imdb.com/title/tt6464550/?ref_=ttep_ep8
The gang comes together for Barry and Iris's wedding, but the ceremony is crashed by villains from Earth-X.
Source: QOQ (Amzn) (4.24 GiB)


Download Legends of Tomorrow S03E08 Crisis on Earth-X Part 4 1080p DD5.1 - 2.0 x264 Phun ... TV Show, Serials

Format : MPEG-4
Format profile : Base Media / Version 2
Codec ID : mp42 (isom/iso2/avc1/mp41)
File size : 815 MiB
Duration : 42 min 14 s
Overall bit rate mode : Variable
Overall bit rate : 2 696 kb/s
Writing application : HandBrake 1.0.7 2017040900
Video
ID : 1
Format : AVC
Format/Info : Advanced Video Codec
Format profile :
Format settings : CABAC / 8 Ref Frames
Format settings, CABAC : Yes
Format settings, RefFrames : 8 frames
Codec ID : avc1
Codec ID/Info : Advanced Video Coding
Duration : 42 min 14 s
Bit rate : 2 209 kb/s
Width : 1 920 pixels
Height : 1 080 pixels
Display aspect ratio : 16:9
Frame rate mode : Variable
Frame rate : 23.976 (24000/1001) FPS
Minimum frame rate : 23.974 FPS
Maximum frame rate : 23.981 FPS
Color space : YUV
Chroma subsampling : 4:2:0
Bit depth : 8 bits
Scan type : Progressive
Bits/(Pixel*Frame) : 0.044
Stream size : 667 MiB (82%)
Writing library : x264 core 148 r2708 86b7198
Color range : Limited
Color primaries : BT.709
Transfer characteristics : BT.709
Matrix coefficients : BT.709
Audio #1
ID : 2
Format : AC-3
Format/Info : Audio Coding 3
Format settings, Endianness : Big
Codec ID : ac-3
Duration : 42 min 14 s
Bit rate mode : Constant
Bit rate : 320 kb/s
Channel(s) : 6 channels
Channel positions : Front: L C R, Side: L R, LFE
Sampling rate : 48.0 kHz
Frame rate : 31.250 FPS (1536 SPF)
Bit depth : 16 bits
Compression mode : Lossy
Stream size : 96.7 MiB (12%)
Title : Surround / Surround
Language : English
Service kind : Complete Main
Default : Yes
Alternate group : 1
Fallback To : 3
Audio #2
ID : 3
Format : AAC
Format/Info : Advanced Audio Codec
Format profile : LC
Codec ID : mp4a-40-2
Duration : 42 min 14 s
Bit rate mode : Variable
Bit rate : 160 kb/s
Channel(s) : 2 channels
Channel positions : Front: L R
Sampling rate : 48.0 kHz
Frame rate : 46.875 FPS (1024 SPF)
Compression mode : Lossy
Stream size : 48.3 MiB (6%)
Title : Stereo / Stereo
Language : English
Default : Inherited From: 2
Alternate group : 1
Fallback From : 2
Text
ID : 4
Format : Timed Text
Muxing mode : sbtl
Codec ID : tx3g
Duration : 42 min 9 s
Bit rate mode : Variable
Bit rate : 74 b/s
Stream size : 22.8 KiB (0%)
Language : English
Default : Yes
Forced : No
Alternate group : 3

Files:


Legends of Tomorrow S03E08 Crisis on Earth-X Part 4 1080p DD5.1 - 2.0 x264 Phun Psyz.mp4 (814.7 MB) You file ready to download from usenet:
Add comment

Add comment