Anime

anime online [Prof] Mobile Suit Gundam: Iron-Blooded Orphans S1 (1080p x265 HEVC 10bit AAC En... or Download

Dont Forget Seed After Download!
anime online [Prof] Mobile Suit Gundam: Iron-Blooded Orphans S1 (1080p x265 HEVC 10bit AAC En... or Download.torrent

Format                                   : Matroska
Format version                           : Version 4 / Version 2
File size                                : 335 MiB
Duration                                 : 24 min 29 s
Overall bit rate                         : 1 913 kb/s
Movie name                               : MOBILE_SUIT_GUNDAM_S1P1D1
Encoded date                             : UTC 2017-12-01 05:08:06
Writing application                      : mkvmerge v9.6.0 ('Slave To Your Mind') 64bit
Writing library                          : libebml v1.3.4 + libmatroska v1.4.5
Video
ID                                       : 1
Format                                   : HEVC
Format/Info                              : High Efficiency Video Coding
Format profile                           : Main @Main
Codec ID                                 : V_MPEGH/ISO/HEVC
Duration                                 : 24 min 29 s
Bit rate                                 : 1 806 kb/s
Width                                    : 1 920 pixels
Height                                   : 1 080 pixels
Display aspect ratio                     : 16:9
Frame rate mode                          : Constant
Frame rate                               : 23.976 (24000/1001) FPS
Color space                              : YUV
Chroma subsampling                       : 4:2:0
Bit depth                                : 10 bits
Bits/(Pixel*Frame)                       : 0.036
Stream size                              : 316 MiB (94%)
Writing library                          : x265 2.1+69-c97c64ab8b8e:[Windows][GCC 6.2.0][64 bit] 10bit
Encoding settings                        : cpuid=1173503 / frame-threads=2 / numa-pools=4 / wpp / no-pmode / no-pme / no-psnr / no-ssim / log-level=2 / input-csp=1 / input-res=1920x1080 / interlace=0 / total-frames=35221 / level-idc=0 / high-tier=1 / uhd-bd=0 / ref=4 / no-allow-non-conformance / no-repeat-headers / annexb / no-aud / no-hrd / info / hash=0 / no-temporal-layers / open-gop / min-keyint=23 / keyint=250 / bframes=4 / b-adapt=2 / b-pyramid / bframe-bias=0 / rc-lookahead=25 / lookahead-slices=4 / scenecut=40 / no-intra-refresh / ctu=64 / min-cu-size=8 / rect / no-amp / max-tu-size=32 / tu-inter-depth=1 / tu-intra-depth=1 / limit-tu=0 / rdoq-level=2 / signhide / no-tskip / nr-intra=0 / nr-inter=0 / no-constrained-intra / strong-intra-smoothing / max-merge=3 / limit-refs=3 / limit-modes / me=3 / subme=3 / merange=57 / temporal-mvp / weightp / no-weightb / no-analyze-src-pics / deblock=0:0 / sao / no-sao-non-deblock / rd=4 / no-early-skip / rskip / no-fast-intra / no-tskip-fast / no-cu-lossless / no-b-intra / rdpenalty=0 / psy-rd=2.00 / psy-rdoq=1.00 / no-rd-refine / analysis-mode=0 / no-lossless / cbqpoffs=0 / crqpoffs=0 / rc=crf / crf=18.0 / qcomp=0.60 / qpstep=4 / stats-write=0 / stats-read=0 / ipratio=1.40 / pbratio=1.30 / aq-mode=1 / aq-strength=1.00 / cutree / zone-count=0 / no-strict-cbr / qg-size=32 / no-rc-grain / qpmax=69 / qpmin=0 / sar=0 / overscan=0 / videoformat=5 / range=0 / colorprim=2 / transfer=2 / colormatrix=2 / chromaloc=0 / display-window=0 / max-cll=0,0 / min-luma=0 / max-luma=1023 / log2-max-poc-lsb=8 / vui-timing-info / vui-hrd-info / slices=1 / opt-qp-pps / opt-ref-list-length-pps / no-multi-pass-opt-rps / scenecut-bias=0.05
Default                                  : Yes
Forced                                   : No
Audio
ID                                       : 2
Format                                   : AAC
Format/Info                              : Advanced Audio Codec
Format profile                           : LC
Codec ID                                 : A_AAC
Duration                                 : 24 min 27 s
Bit rate                                 : 88.4 kb/s
Channel(s)                               : 2 channels
Channel positions                        : Front: L R
Sampling rate                            : 48.0 kHz
Frame rate                               : 46.875 FPS (1024 spf)
Compression mode                         : Lossy
Delay relative to video                  : 9 ms
Stream size                              : 15.5 MiB (5%)
Language                                 : English
Default                                  : No
Forced                                   : No
Text #1
ID                                       : 3
Format                                   : PGS
Muxing mode                              : zlib
Codec ID                                 : S_HDMV/PGS
Codec ID/Info                            : Picture based subtitle format used on BDs/HD-DVDs
Duration                                 : 24 min 11 s
Bit rate                                 : 15.6 kb/s
Count of elements                        : 844
Stream size                              : 2.70 MiB (1%)
Language                                 : English
Default                                  : No
Forced                                   : No
Text #2
ID                                       : 4
Format                                   : PGS
Muxing mode                              : zlib
Codec ID                                 : S_HDMV/PGS
Codec ID/Info                            : Picture based subtitle format used on BDs/HD-DVDs
Duration                                 : 1 min 17 s
Bit rate                                 : 18.3 kb/s
Count of elements                        : 44
Stream size                              : 173 KiB (0%)
Language                                 : English
Default                                  : No
Forced                                   : No
Menu
00:00:00.000                             : en:Chapter 01
00:01:07.358                             : en:Chapter 02
00:09:25.982                             : en:Chapter 03
00:22:27.971                             : en:Chapter 04
00:23:57.978                             : en:Chapter 05


Files:

[Prof] Mobile Suit Gundam - Iron-Blooded Orphans Season 1
18.mkv (221.8 MB)
20.mkv (233.4 MB)
15.mkv (239.9 MB)
14.mkv (248.9 MB)
22.mkv (262.6 MB)
16.mkv (282.3 MB)
25.mkv (286.6 MB)
23.mkv (307.8 MB)
21.mkv (333.3 MB)
1.mkv (335.0 MB)
17.mkv (366.1 MB)
24.mkv (399.1 MB)
19.mkv (416.4 MB)
9.mkv (425.8 MB)
8.mkv (438.6 MB)
4.mkv (461.6 MB)
3.mkv (472.6 MB)
2.mkv (475.8 MB)
13.mkv (498.4 MB)
10.mkv (502.7 MB)
6.mkv (503.1 MB)
11.mkv (511.2 MB)
5.mkv (535.3 MB)
7.mkv (538.7 MB)
12.mkv (539.6 MB) You file ready to download from usenet:
Add comment

Add comment